Power Rangers 2017 BluRay 1080p DD5.1 10Bit H265-d3g

  • Category Movies
  • Type HEVC/x265
  • Language English
  • Total size 2.3 GB
  • Uploaded By roflcopter
  • Downloads 377
  • Last checked 5 days ago
  • Date uploaded 1 week ago
  • Seeders 75
  • Leechers 24

Power Rangers

ActionAdventureScience Fiction

Saban's Power Rangers follows five ordinary teens who must become something extraordinary when they learn that their small town of Angel Grove — and the world — is on the verge of being obliterated by an alien threat. Chosen by destiny, our heroes quickly discover they are the only ones who can save the planet. But to do so, they will have to overcome their real-life issues and before it’s too late, band together as the Power Rangers.

Infohash : 6C26069F586DFF0B265A4859718FA570CD66D379

Power Rangers 2017 BluRay 1080p DD5.1 10Bit H265-d3g



Plot:
Five ordinary teens must become something extraordinary when they learn that their small town of Angel Grove - and the world - is on the verge of being obliterated by an alien threat. Chosen by destiny, our heroes quickly discover they are the only ones who can save the planet. But to do so, they will have to overcome their real-life issues and before it's too late, band together as the Power Rangers.

Info:
Source: BluRay ISO

Format : Matroska
Format version : Version 4 / Version 2
File size : 2.29 GiB
Duration : 2 h 3 min
Overall bit rate : 2 647 kb/s
Movie name : Power Rangers 2017 BluRay 1080p DD5.1 10Bit H265-d3g
Encoded date : UTC 2017-06-18 12:14:34
Writing application : DVDFab 10.0.4.2
Writing library : libebml v1.3.4 + libmatroska v1.4.5

Video
ID : 1
Format : HEVC
Format/Info : High Efficiency Video Coding
Format profile : Main [email protected]@Main
Codec ID : V_MPEGH/ISO/HEVC
Duration : 2 h 3 min
Bit rate : 2 179 kb/s
Width : 1 920 pixels
Height : 800 pixels
Display aspect ratio : 2.40:1
Frame rate mode : Constant
Frame rate : 23.976 (24000/1001) FPS
Color space : YUV
Chroma subsampling : 4:2:0
Bit depth : 10 bits
Bits/(Pixel*Frame) : 0.059
Stream size : 1.89 GiB (82%)
Default : Yes
Forced : No
Color range : Limited
Color primaries : BT.709
Transfer characteristics : BT.709
Matrix coefficients : BT.709

Audio
ID : 2
Format : AC-3
Format/Info : Audio Coding 3
Format settings, Endianness : Big
Codec ID : A_AC3
Duration : 2 h 3 min
Bit rate mode : Constant
Bit rate : 448 kb/s
Channel(s) : 6 channels
Channel positions : Front: L C R, Side: L R, LFE
Sampling rate : 48.0 kHz
Frame rate : 31.250 FPS (1536 spf)
Bit depth : 16 bits
Compression mode : Lossy
Stream size : 397 MiB (17%)
Language : English
Service kind : Complete Main
Default : Yes
Forced : No

Text #1
ID : 3
Format : VobSub
Codec ID : S_VOBSUB
Codec ID/Info : Picture based subtitle format used on DVDs
Duration : 1 h 55 min
Bit rate : 11.3 kb/s
Count of elements : 1890
Stream size : 9.34 MiB (0%)
Language : English
Default : No
Forced : No

Text #2
ID : 4
Format : VobSub
Codec ID : S_VOBSUB
Codec ID/Info : Picture based subtitle format used on DVDs
Duration : 1 h 55 min
Bit rate : 8 635 b/s
Count of elements : 1600
Stream size : 7.11 MiB (0%)
Language : Spanish
Default : No
Forced : No

Screens:


Files:

Power Rangers 2017 10bit hevc-d3g
  • Power Rangers 2017 BluRay 1080p DD5.1 10Bit H265-d3g.mkv (2.3 GB)

There are currently no comments. Feel free to leave one :)

Code:

  • udp://tracker.coppersurfer.tk:6969/announce
  • udp://shadowshq.yi.org:6969/announce
  • udp://tracker.grepler.com:6969/announce
  • udp://eddie4.nl:6969/announce
  • udp://tracker.opentrackr.org:1337/announce
  • udp://tracker.zer0day.to:1337/announce
  • udp://ipv4.tracker.harry.lu:80/announce
  • udp://p4p.arenabg.com:1337/announce
  • udp://9.rarbg.to:2740/announce
  • http://t.nyaatracker.com/announce
  • http://t.nyaatracker.com:80/announce
  • http://ipv4.tracker.harry.lu/announce
  • http://ipv4.tracker.harry.lu:80/announce
  • http://open.kickasstracker.com:443/announce
  • http://open.kickasstracker.com/announce