The Last Dragon 1985 (1080p Bluray x265 HEVC 10bit AAC 5.1 Tigole...

  • Category Movies
  • Type HEVC/x265
  • Language English
  • Total size 3.2 GB
  • Uploaded By UTRplus
  • Downloads 565
  • Last checked 1 day ago
  • Date uploaded 6 days ago
  • Seeders 13
  • Leechers 4

The Last Dragon

ActionAdventureComedyDrama

A young man searches for the "master" to obtain the final level of martial arts mastery known as the glow. Along the way he must fight an evil martial arts expert and rescue a beautiful singer from an obsessed music promoter.

Infohash : 50ACFE8435AAA0AB753181568143B2256DF055CA



The Last Dragon 1985 in 1080p, encoded with x265 in HEVC and AAC 5.1 English, with subtitles!
Encoded using the time consuming 2 pass, 10 bit color at 3326 kbps, from a Blu-ray source, for the highest quality possible.



Media Information

Code:

General
Format : Matroska
Format version : Version 4 / Version 2
File size : 2.88 GiB
Duration : 1 h 48 min
Overall bit rate : 3 807 kb/s
Movie name : Last Dragon, The (1985)
Encoded date : UTC 2017-05-25 00:53:16
Writing application : mkvmerge v9.6.0 ('Slave To Your Mind') 64bit
Writing library : libebml v1.3.4 + libmatroska v1.4.5

Video
ID : 1
Format : HEVC
Format/Info : High Efficiency Video Coding
Format profile : Main [email protected]@Main
Codec ID : V_MPEGH/ISO/HEVC
Duration : 1 h 48 min
Bit rate : 3 326 kb/s
Width : 1 920 pixels
Height : 1 040 pixels
Display aspect ratio : 1.85:1
Frame rate mode : Constant
Frame rate : 23.976 (24000/1001) FPS
Color space : YUV
Chroma subsampling : 4:2:0
Bit depth : 10 bits
Bits/(Pixel*Frame) : 0.069
Stream size : 2.52 GiB (87%)
Writing library : x265 2.4+22-c102c809fc4f:[Windows][GCC 6.3.0][64 bit] 10bit
Encoding settings : cpuid=1173503 / frame-threads=3 / numa-pools=8 / wpp / no-pmode / no-pme / no-psnr / no-ssim / log-level=2 / input-csp=1 / input-res=1920x1040 / interlace=0 / total-frames=155784 / level-idc=0 / high-tier=1 / uhd-bd=0 / ref=4 / no-allow-non-conformance / no-repeat-headers / annexb / no-aud / no-hrd / info / hash=0 / no-temporal-layers / open-gop / min-keyint=23 / keyint=250 / bframes=4 / b-adapt=2 / b-pyramid / bframe-bias=0 / rc-lookahead=25 / lookahead-slices=4 / scenecut=40 / no-intra-refresh / ctu=64 / min-cu-size=8 / rect / no-amp / max-tu-size=32 / tu-inter-depth=1 / tu-intra-depth=1 / limit-tu=0 / rdoq-level=2 / dynamic-rd=0.00 / no-ssim-rd / signhide / no-tskip / nr-intra=0 / nr-inter=0 / no-constrained-intra / strong-intra-smoothing / max-merge=3 / limit-refs=3 / limit-modes / me=3 / subme=3 / merange=57 / temporal-mvp / weightp / no-weightb / no-analyze-src-pics / deblock=0:0 / sao / no-sao-non-deblock / rd=4 / no-early-skip / rskip / no-fast-intra / no-tskip-fast / no-cu-lossless / no-b-intra / rdpenalty=0 / psy-rd=2.00 / psy-rdoq=1.00 / no-rd-refine / analysis-mode=0 / no-lossless / cbqpoffs=0 / crqpoffs=0 / rc=abr / bitrate=3326 / qcomp=0.60 / qpstep=4 / stats-write=0 / stats-read=2 / cplxblur=20.0 / qblur=0.5 / ipratio=1.40 / pbratio=1.30 / aq-mode=2 / aq-strength=1.00 / cutree / zone-count=0 / no-strict-cbr / qg-size=32 / no-rc-grain / qpmax=69 / qpmin=0 / sar=0 / overscan=0 / videoformat=5 / range=0 / colorprim=2 / transfer=2 / colormatrix=2 / chromaloc=0 / display-window=0 / max-cll=0,0 / min-luma=0 / max-luma=1023 / log2-max-poc-lsb=8 / vui-timing-info / vui-hrd-info / slices=1 / opt-qp-pps / opt-ref-list-length-pps / no-multi-pass-opt-rps / scenecut-bias=0.05 / no-opt-cu-delta-qp / no-aq-motion / no-hdr / no-hdr-opt / no-dhdr10-opt / refine-level=5 / no-limit-sao / ctu-info=0
Default : Yes
Forced : No

Audio #1
ID : 2
Format : AAC
Format/Info : Advanced Audio Codec
Format profile : LC
Codec ID : A_AAC
Duration : 1 h 48 min
Bit rate : 339 kb/s
Channel(s) : 6 channels
Channel positions : Front: L C R, Side: L R, LFE
Sampling rate : 48.0 kHz
Frame rate : 46.875 FPS (1024 spf)
Compression mode : Lossy
Delay relative to video : 20 ms
Stream size : 263 MiB (9%)
Language : English
Default : Yes
Forced : No

Audio #2
ID : 3
Format : AAC
Format/Info : Advanced Audio Codec
Format profile : HE-AAC / LC
Codec ID : A_AAC
Duration : 1 h 48 min
Bit rate : 66.2 kb/s
Channel(s) : 2 channels
Channel positions : Front: L R
Sampling rate : 48.0 kHz / 24.0 kHz
Frame rate : 23.438 FPS (1024 spf)
Compression mode : Lossy
Delay relative to video : 40 ms
Stream size : 51.2 MiB (2%)
Title : Commentary
Language : English
Default : No
Forced : No

Text #1
ID : 4
Format : VobSub
Muxing mode : zlib
Codec ID : S_VOBSUB
Codec ID/Info : Picture based subtitle format used on DVDs
Duration : 1 h 47 min
Bit rate : 7 160 b/s
Count of elements : 1760
Stream size : 5.52 MiB (0%)
Language : English
Default : No
Forced : No

Text #2
ID : 5
Format : VobSub
Muxing mode : zlib
Codec ID : S_VOBSUB
Codec ID/Info : Picture based subtitle format used on DVDs
Duration : 1 h 48 min
Bit rate : 7 409 b/s
Count of elements : 1523
Stream size : 5.72 MiB (0%)
Title : Commentary
Language : English
Default : No
Forced : No

Text #3
ID : 6
Format : VobSub
Muxing mode : zlib
Codec ID : S_VOBSUB
Codec ID/Info : Picture based subtitle format used on DVDs
Duration : 1 h 39 min
Bit rate : 5 886 b/s
Count of elements : 1323
Stream size : 4.19 MiB (0%)
Language : Chinese
Default : No
Forced : No

Text #4
ID : 7
Format : VobSub
Muxing mode : zlib
Codec ID : S_VOBSUB
Codec ID/Info : Picture based subtitle format used on DVDs
Duration : 1 h 46 min
Bit rate : 6 369 b/s
Count of elements : 1287
Stream size : 4.84 MiB (0%)
Title : Commentary
Language : Chinese
Default : No
Forced : No

Text #5
ID : 8
Format : VobSub
Muxing mode : zlib
Codec ID : S_VOBSUB
Codec ID/Info : Picture based subtitle format used on DVDs
Duration : 1 h 45 min
Bit rate : 4 949 b/s
Count of elements : 1206
Stream size : 3.72 MiB (0%)
Language : French
Default : No
Forced : No

Text #6
ID : 9
Format : VobSub
Muxing mode : zlib
Codec ID : S_VOBSUB
Codec ID/Info : Picture based subtitle format used on DVDs
Duration : 1 h 41 min
Bit rate : 3 810 b/s
Count of elements : 1236
Stream size : 2.78 MiB (0%)
Language : Korean
Default : No
Forced : No

Text #7
ID : 10
Format : VobSub
Muxing mode : zlib
Codec ID : S_VOBSUB
Codec ID/Info : Picture based subtitle format used on DVDs
Duration : 1 h 46 min
Bit rate : 5 079 b/s
Count of elements : 1273
Stream size : 3.86 MiB (0%)
Title : Commentary
Language : Korean
Default : No
Forced : No

Text #8
ID : 11
Format : VobSub
Muxing mode : zlib
Codec ID : S_VOBSUB
Codec ID/Info : Picture based subtitle format used on DVDs
Duration : 1 h 41 min
Bit rate : 4 245 b/s
Count of elements : 932
Stream size : 3.09 MiB (0%)
Language : Portuguese
Default : No
Forced : No

Text #9
ID : 12
Format : VobSub
Muxing mode : zlib
Codec ID : S_VOBSUB
Codec ID/Info : Picture based subtitle format used on DVDs
Duration : 1 h 46 min
Bit rate : 6 040 b/s
Count of elements : 1246
Stream size : 4.59 MiB (0%)
Title : Commentary
Language : Portuguese
Default : No
Forced : No

Text #10
ID : 13
Format : VobSub
Muxing mode : zlib
Codec ID : S_VOBSUB
Codec ID/Info : Picture based subtitle format used on DVDs
Duration : 1 h 47 min
Bit rate : 4 777 b/s
Count of elements : 1216
Stream size : 3.67 MiB (0%)
Language : Spanish
Default : No
Forced : No

Text #11
ID : 14
Format : VobSub
Muxing mode : zlib
Codec ID : S_VOBSUB
Codec ID/Info : Picture based subtitle format used on DVDs
Duration : 1 h 46 min
Bit rate : 6 395 b/s
Count of elements : 1308
Stream size : 4.86 MiB (0%)
Title : Commentary
Language : Spanish
Default : No
Forced : No

Text #12
ID : 15
Format : VobSub
Muxing mode : zlib
Codec ID : S_VOBSUB
Codec ID/Info : Picture based subtitle format used on DVDs
Duration : 1 h 39 min
Bit rate : 5 483 b/s
Count of elements : 1262
Stream size : 3.91 MiB (0%)
Language : Thai
Default : No
Forced : No

Text #13
ID : 16
Format : VobSub
Muxing mode : zlib
Codec ID : S_VOBSUB
Codec ID/Info : Picture based subtitle format used on DVDs
Duration : 1 h 46 min
Bit rate : 6 229 b/s
Count of elements : 1268
Stream size : 4.73 MiB (0%)
Title : Commentary
Language : Thai
Default : No
Forced : No

Menu
00:00:00.000 : en:Chapter 01
00:06:20.380 : en:Chapter 02
00:13:06.035 : en:Chapter 03
00:21:50.475 : en:Chapter 04
00:26:16.366 : en:Chapter 05
00:28:31.751 : en:Chapter 06
00:32:54.847 : en:Chapter 07
00:39:44.757 : en:Chapter 08
00:46:39.421 : en:Chapter 09
00:56:43.191 : en:Chapter 10
01:02:31.539 : en:Chapter 11
01:12:05.571 : en:Chapter 12
01:17:11.418 : en:Chapter 13
01:23:04.521 : en:Chapter 14
01:28:59.167 : en:Chapter 15
01:41:31.502 : en:Chapter 16


Source Information

Code:

Release : The Last Dragon 1985 1080p BluRay AVC DTS-HD MA 5.1-PCH
Complete name : Last_Dragon,_The_(1985)_t02.mkv
File size : 23.4 GiB
Duration : 1 h 48 min
Overall bit rate mode : Variable
Overall bit rate : 31.0 Mb/s


Files:

The Last Dragon 1985 (1080p Bluray x265 HEVC 10bit AAC 5.1 Tigole) Featurettes
  • Return of the Dragon.mkv (281.3 MB)
  • Trailer.mkv (16.0 MB)
  • The Last Dragon 1985 (1080p x265 10bit Tigole).mkv (2.9 GB)

Comments

Code:

  • udp://tracker.torrent.eu.org:451/announce
  • udp://tracker.opentrackr.org:1337/announce
  • udp://tracker.coppersurfer.tk:6969/announce