Crimson Peak 2015 (1080p Bluray x265 HEVC 10bit AAC 7.1 Tigole) [...

  • Category Movies
  • Type HEVC/x265
  • Language English
  • Total size 4.4 GB
  • Uploaded By UTRplus
  • Downloads 596
  • Last checked 1 day ago
  • Date uploaded 6 days ago
  • Seeders 17
  • Leechers 9

Crimson Peak

HorrorRomance

In the aftermath of a family tragedy, an aspiring author is torn between love for her childhood friend and the temptation of a mysterious outsider. Trying to escape the ghosts of her past, she is swept away to a house that breathes, bleeds… and remembers.

Infohash : 87066A36AFF6EB511065F6FCC95B7D2151420F68



Crimson Peak 2015 in 1080p, encoded with x265 in HEVC and AAC 7.1 English, with subtitles!
Encoded using the time consuming 2 pass, 10 bit color at 3750 kbps, from a Blu-ray source, for the highest quality possible.



Media Information

Code:

General
Format : Matroska
Format version : Version 4 / Version 2
File size : 3.60 GiB
Duration : 1 h 58 min
Overall bit rate : 4 336 kb/s
Movie name : Crimson Peak
Encoded date : UTC 2017-05-22 03:59:48
Writing application : mkvmerge v9.6.0 ('Slave To Your Mind') 64bit
Writing library : libebml v1.3.4 + libmatroska v1.4.5

Video
ID : 1
Format : HEVC
Format/Info : High Efficiency Video Coding
Format profile : Main [email protected]@Main
Codec ID : V_MPEGH/ISO/HEVC
Duration : 1 h 58 min
Bit rate : 3 764 kb/s
Width : 1 920 pixels
Height : 1 040 pixels
Display aspect ratio : 1.85:1
Frame rate mode : Constant
Frame rate : 23.976 (24000/1001) FPS
Color space : YUV
Chroma subsampling : 4:2:0
Bit depth : 10 bits
Bits/(Pixel*Frame) : 0.079
Stream size : 3.12 GiB (87%)
Writing library : x265 2.4+22-c102c809fc4f:[Windows][GCC 6.3.0][64 bit] 10bit
Encoding settings : cpuid=1173503 / frame-threads=3 / numa-pools=8 / wpp / no-pmode / no-pme / no-psnr / no-ssim / log-level=2 / input-csp=1 / input-res=1920x1040 / interlace=0 / total-frames=170799 / level-idc=0 / high-tier=1 / uhd-bd=0 / ref=4 / no-allow-non-conformance / no-repeat-headers / annexb / no-aud / no-hrd / info / hash=0 / no-temporal-layers / open-gop / min-keyint=23 / keyint=250 / bframes=4 / b-adapt=2 / b-pyramid / bframe-bias=0 / rc-lookahead=25 / lookahead-slices=4 / scenecut=40 / no-intra-refresh / ctu=64 / min-cu-size=8 / rect / no-amp / max-tu-size=32 / tu-inter-depth=1 / tu-intra-depth=1 / limit-tu=0 / rdoq-level=2 / dynamic-rd=0.00 / no-ssim-rd / signhide / no-tskip / nr-intra=0 / nr-inter=0 / no-constrained-intra / strong-intra-smoothing / max-merge=3 / limit-refs=3 / limit-modes / me=3 / subme=3 / merange=57 / temporal-mvp / weightp / no-weightb / no-analyze-src-pics / deblock=0:0 / sao / no-sao-non-deblock / rd=4 / no-early-skip / rskip / no-fast-intra / no-tskip-fast / no-cu-lossless / no-b-intra / rdpenalty=0 / psy-rd=2.00 / psy-rdoq=1.00 / no-rd-refine / analysis-mode=0 / no-lossless / cbqpoffs=0 / crqpoffs=0 / rc=abr / bitrate=3764 / qcomp=0.60 / qpstep=4 / stats-write=0 / stats-read=2 / cplxblur=20.0 / qblur=0.5 / ipratio=1.40 / pbratio=1.30 / aq-mode=2 / aq-strength=1.00 / cutree / zone-count=0 / no-strict-cbr / qg-size=32 / no-rc-grain / qpmax=69 / qpmin=0 / sar=0 / overscan=0 / videoformat=5 / range=0 / colorprim=2 / transfer=2 / colormatrix=2 / chromaloc=0 / display-window=0 / max-cll=0,0 / min-luma=0 / max-luma=1023 / log2-max-poc-lsb=8 / vui-timing-info / vui-hrd-info / slices=1 / opt-qp-pps / opt-ref-list-length-pps / no-multi-pass-opt-rps / scenecut-bias=0.05 / no-opt-cu-delta-qp / no-aq-motion / no-hdr / no-hdr-opt / no-dhdr10-opt / refine-level=5 / no-limit-sao / ctu-info=0
Default : Yes
Forced : No

Audio #1
ID : 2
Format : AAC
Format/Info : Advanced Audio Codec
Format profile : LC
Codec ID : A_AAC
Duration : 1 h 58 min
Bit rate : 398 kb/s
Channel(s) : 8 channels
Channel positions : Front: L C R, Side: 4, LFE
Sampling rate : 48.0 kHz
Frame rate : 46.875 FPS (1024 spf)
Compression mode : Lossy
Delay relative to video : 20 ms
Stream size : 338 MiB (9%)
Language : English
Default : Yes
Forced : No

Audio #2
ID : 3
Format : AAC
Format/Info : Advanced Audio Codec
Format profile : HE-AAC / LC
Codec ID : A_AAC
Duration : 1 h 58 min
Bit rate : 66.2 kb/s
Channel(s) : 2 channels
Channel positions : Front: L R
Sampling rate : 48.0 kHz / 24.0 kHz
Frame rate : 23.438 FPS (1024 spf)
Compression mode : Lossy
Delay relative to video : 40 ms
Stream size : 55.9 MiB (2%)
Title : Commentary
Language : English
Default : No
Forced : No

Text #1
ID : 4
Format : VobSub
Muxing mode : zlib
Codec ID : S_VOBSUB
Codec ID/Info : Picture based subtitle format used on DVDs
Duration : 1 h 50 min
Bit rate : 5 815 b/s
Count of elements : 1529
Stream size : 4.60 MiB (0%)
Language : English
Default : No
Forced : No

Text #2
ID : 5
Format : VobSub
Muxing mode : zlib
Codec ID : S_VOBSUB
Codec ID/Info : Picture based subtitle format used on DVDs
Duration : 1 h 52 min
Bit rate : 11.6 kb/s
Count of elements : 1733
Stream size : 9.30 MiB (0%)
Title : Commentary
Language : English
Default : No
Forced : No

Text #3
ID : 6
Format : VobSub
Muxing mode : zlib
Codec ID : S_VOBSUB
Codec ID/Info : Picture based subtitle format used on DVDs
Duration : 1 h 57 min
Bit rate : 3 074 b/s
Count of elements : 1382
Stream size : 2.58 MiB (0%)
Language : Arabic
Default : No
Forced : No

Text #4
ID : 7
Format : VobSub
Muxing mode : zlib
Codec ID : S_VOBSUB
Codec ID/Info : Picture based subtitle format used on DVDs
Duration : 1 h 57 min
Bit rate : 4 324 b/s
Count of elements : 984
Stream size : 3.64 MiB (0%)
Language : Danish
Default : No
Forced : No

Text #5
ID : 8
Format : VobSub
Muxing mode : zlib
Codec ID : S_VOBSUB
Codec ID/Info : Picture based subtitle format used on DVDs
Duration : 1 h 57 min
Bit rate : 3 961 b/s
Count of elements : 925
Stream size : 3.33 MiB (0%)
Language : Dutch
Default : No
Forced : No

Text #6
ID : 9
Format : VobSub
Muxing mode : zlib
Codec ID : S_VOBSUB
Codec ID/Info : Picture based subtitle format used on DVDs
Duration : 1 h 57 min
Bit rate : 3 735 b/s
Count of elements : 1055
Stream size : 3.14 MiB (0%)
Language : Finnish
Default : No
Forced : No

Text #7
ID : 10
Format : VobSub
Muxing mode : zlib
Codec ID : S_VOBSUB
Codec ID/Info : Picture based subtitle format used on DVDs
Duration : 1 h 57 min
Bit rate : 4 121 b/s
Count of elements : 1274
Stream size : 3.47 MiB (0%)
Language : French
Default : No
Forced : No

Text #8
ID : 11
Format : VobSub
Muxing mode : zlib
Codec ID : S_VOBSUB
Codec ID/Info : Picture based subtitle format used on DVDs
Duration : 1 h 58 min
Bit rate : 10.6 kb/s
Count of elements : 1728
Stream size : 9.02 MiB (0%)
Title : Commentary
Language : French
Default : No
Forced : No

Text #9
ID : 12
Format : VobSub
Muxing mode : zlib
Codec ID : S_VOBSUB
Codec ID/Info : Picture based subtitle format used on DVDs
Duration : 1 h 57 min
Bit rate : 4 876 b/s
Count of elements : 1341
Stream size : 4.10 MiB (0%)
Language : German
Default : No
Forced : No

Text #10
ID : 13
Format : VobSub
Muxing mode : zlib
Codec ID : S_VOBSUB
Codec ID/Info : Picture based subtitle format used on DVDs
Duration : 1 h 54 min
Bit rate : 71 b/s
Count of elements : 18
Stream size : 60.3 KiB (0%)
Title : Forced
Language : German
Default : No
Forced : No

Text #11
ID : 14
Format : VobSub
Muxing mode : zlib
Codec ID : S_VOBSUB
Codec ID/Info : Picture based subtitle format used on DVDs
Duration : 1 h 58 min
Bit rate : 11.3 kb/s
Count of elements : 1735
Stream size : 9.55 MiB (0%)
Title : Commentary
Language : German
Default : No
Forced : No

Text #12
ID : 15
Format : VobSub
Muxing mode : zlib
Codec ID : S_VOBSUB
Codec ID/Info : Picture based subtitle format used on DVDs
Duration : 1 h 57 min
Bit rate : 4 594 b/s
Count of elements : 1352
Stream size : 3.86 MiB (0%)
Language : Hindi
Default : No
Forced : No

Text #13
ID : 16
Format : VobSub
Muxing mode : zlib
Codec ID : S_VOBSUB
Codec ID/Info : Picture based subtitle format used on DVDs
Duration : 1 h 57 min
Bit rate : 4 931 b/s
Count of elements : 1365
Stream size : 4.15 MiB (0%)
Language : Icelandic
Default : No
Forced : No

Text #14
ID : 17
Format : VobSub
Muxing mode : zlib
Codec ID : S_VOBSUB
Codec ID/Info : Picture based subtitle format used on DVDs
Duration : 1 h 57 min
Bit rate : 4 692 b/s
Count of elements : 1345
Stream size : 3.95 MiB (0%)
Language : Italian
Default : No
Forced : No

Text #15
ID : 18
Format : VobSub
Muxing mode : zlib
Codec ID : S_VOBSUB
Codec ID/Info : Picture based subtitle format used on DVDs
Duration : 1 h 57 min
Bit rate : 4 041 b/s
Count of elements : 1153
Stream size : 3.40 MiB (0%)
Language : Norwegian Bokmal
Default : No
Forced : No

Text #16
ID : 19
Format : VobSub
Muxing mode : zlib
Codec ID : S_VOBSUB
Codec ID/Info : Picture based subtitle format used on DVDs
Duration : 1 h 57 min
Bit rate : 4 922 b/s
Count of elements : 1259
Stream size : 4.14 MiB (0%)
Language : Portuguese
Default : No
Forced : No

Text #17
ID : 20
Format : VobSub
Muxing mode : zlib
Codec ID : S_VOBSUB
Codec ID/Info : Picture based subtitle format used on DVDs
Duration : 1 h 58 min
Bit rate : 4 874 b/s
Count of elements : 1349
Stream size : 4.13 MiB (0%)
Language : Spanish
Default : No
Forced : No

Text #18
ID : 21
Format : VobSub
Muxing mode : zlib
Codec ID : S_VOBSUB
Codec ID/Info : Picture based subtitle format used on DVDs
Duration : 1 h 58 min
Bit rate : 10.4 kb/s
Count of elements : 1735
Stream size : 8.80 MiB (0%)
Title : Commentary
Language : Spanish
Default : No
Forced : No

Text #19
ID : 22
Format : VobSub
Muxing mode : zlib
Codec ID : S_VOBSUB
Codec ID/Info : Picture based subtitle format used on DVDs
Duration : 1 h 57 min
Bit rate : 4 561 b/s
Count of elements : 1058
Stream size : 3.84 MiB (0%)
Language : Swedish
Default : No
Forced : No

Menu
00:00:00.000 : en:Chapter 01
00:06:02.528 : en:Chapter 02
00:11:01.202 : en:Chapter 03
00:15:29.720 : en:Chapter 04
00:21:13.105 : en:Chapter 05
00:25:52.926 : en:Chapter 06
00:31:14.664 : en:Chapter 07
00:39:26.822 : en:Chapter 08
00:45:40.612 : en:Chapter 09
00:51:57.030 : en:Chapter 10
00:56:11.576 : en:Chapter 11
01:02:05.096 : en:Chapter 12
01:08:19.929 : en:Chapter 13
01:14:24.835 : en:Chapter 14
01:20:19.105 : en:Chapter 15
01:25:54.149 : en:Chapter 16
01:30:38.891 : en:Chapter 17
01:36:09.638 : en:Chapter 18
01:43:21.069 : en:Chapter 19
01:51:24.135 : en:Chapter 20


Source Information

Code:

Complete name : Crimson_Peak_t27.mkv
File size : 30.3 GiB
Duration : 1 h 58 min
Overall bit rate mode : Variable
Overall bit rate : 36.5 Mb/s


Files:

Crimson Peak 2015 (1080p Bluray x265 HEVC 10bit AAC 7.1 Tigole)
  • Crimson Peak 2015 (1080p x265 10bit Tigole).mkv (3.6 GB)
  • Featurettes
    • A Living Thing.mkv (144.4 MB)
    • A Primer on Gothic Romance.mkv (66.3 MB)
    • Beware of Crimson Peak.mkv (91.4 MB)
    • Crimson Phantoms.mkv (82.5 MB)
    • Deleted Scenes.mkv (48.3 MB)
    • Hand Tailored Gothic.mkv (106.5 MB)
    • I Remember Crimson Peak - The Gothic Corridor.mkv (33.6 MB)
    • I Remember Crimson Peak - The Limbo Fog Set.mkv (63.4 MB)
    • I Remember Crimson Peak - The Red Clay Mines.mkv (52.8 MB)
    • I Remember Crimson Peak - The Scullery.mkv (35.8 MB)
    • The Light and Dark of Crimson Peak.mkv (92.7 MB)

There are currently no comments. Feel free to leave one :)

Code:

  • udp://tracker.torrent.eu.org:451/announce
  • udp://tracker.opentrackr.org:1337/announce
  • udp://tracker.coppersurfer.tk:6969/announce