Dracula Untold 2014 (1080p Bluray x265 HEVC 10bit AAC 5.1 Tigole)...

  • Category Movies
  • Type HEVC/x265
  • Language English
  • Total size 2.8 GB
  • Uploaded By UTRplus
  • Downloads 1081
  • Last checked 3 days ago
  • Date uploaded 1 week ago
  • Seeders 29
  • Leechers 13

Dracula Untold

ActionDramaFantasyHorrorWar

Vlad Tepes is a great hero, but when he learns the Sultan is preparing for battle and needs to form an army of 1,000 boys, including Vlad's son, he vows to find a way to protect his family. Vlad turns to dark forces in order to get the power to destroy his enemies and agrees to go from hero to monster as he's turned into the mythological vampire Dracula.

Infohash : 10A0AE3E67E886870AE902BBACE0FC34CE660B16



Dracula Untold 2014 in 1080p, encoded with x265 in HEVC and AAC 5.1 English, with subtitles!
Encoded using the time consuming 2 pass, 10 bit color at 2750 kbps, from a Blu-ray source, for the highest quality possible.



Media Information

Code:

General
Format : Matroska
Format version : Version 4 / Version 2
File size : 2.09 GiB
Duration : 1 h 32 min
Overall bit rate : 3 241 kb/s
Movie name : Dracula Untold
Encoded date : UTC 2017-05-17 15:43:02
Writing application : mkvmerge v9.6.0 ('Slave To Your Mind') 64bit
Writing library : libebml v1.3.4 + libmatroska v1.4.5

Video
ID : 1
Format : HEVC
Format/Info : High Efficiency Video Coding
Format profile : Main [email protected]@Main
Codec ID : V_MPEGH/ISO/HEVC
Duration : 1 h 32 min
Bit rate : 2 737 kb/s
Width : 1 920 pixels
Height : 800 pixels
Display aspect ratio : 2.40:1
Frame rate mode : Constant
Frame rate : 23.976 (24000/1001) FPS
Color space : YUV
Chroma subsampling : 4:2:0
Bit depth : 10 bits
Bits/(Pixel*Frame) : 0.074
Stream size : 1.76 GiB (84%)
Writing library : x265 2.4+6-fd01abfc7898:[Windows][GCC 6.3.0][64 bit] 10bit
Encoding settings : cpuid=1173503 / frame-threads=3 / numa-pools=8 / wpp / no-pmode / no-pme / no-psnr / no-ssim / log-level=2 / input-csp=1 / input-res=1920x800 / interlace=0 / total-frames=132549 / level-idc=0 / high-tier=1 / uhd-bd=0 / ref=4 / no-allow-non-conformance / no-repeat-headers / annexb / no-aud / no-hrd / info / hash=0 / no-temporal-layers / open-gop / min-keyint=23 / keyint=250 / bframes=4 / b-adapt=2 / b-pyramid / bframe-bias=0 / rc-lookahead=25 / lookahead-slices=4 / scenecut=40 / no-intra-refresh / ctu=64 / min-cu-size=8 / rect / no-amp / max-tu-size=32 / tu-inter-depth=1 / tu-intra-depth=1 / limit-tu=0 / rdoq-level=2 / dynamic-rd=0.00 / no-ssim-rd / signhide / no-tskip / nr-intra=0 / nr-inter=0 / no-constrained-intra / strong-intra-smoothing / max-merge=3 / limit-refs=3 / limit-modes / me=3 / subme=3 / merange=57 / temporal-mvp / weightp / no-weightb / no-analyze-src-pics / deblock=0:0 / sao / no-sao-non-deblock / rd=4 / no-early-skip / rskip / no-fast-intra / no-tskip-fast / no-cu-lossless / no-b-intra / rdpenalty=0 / psy-rd=2.00 / psy-rdoq=1.00 / no-rd-refine / analysis-mode=0 / no-lossless / cbqpoffs=0 / crqpoffs=0 / rc=abr / bitrate=2737 / qcomp=0.60 / qpstep=4 / stats-write=0 / stats-read=2 / cplxblur=20.0 / qblur=0.5 / ipratio=1.40 / pbratio=1.30 / aq-mode=3 / aq-strength=1.00 / cutree / zone-count=0 / no-strict-cbr / qg-size=32 / no-rc-grain / qpmax=69 / qpmin=0 / sar=0 / overscan=0 / videoformat=5 / range=0 / colorprim=2 / transfer=2 / colormatrix=2 / chromaloc=0 / display-window=0 / max-cll=0,0 / min-luma=0 / max-luma=1023 / log2-max-poc-lsb=8 / vui-timing-info / vui-hrd-info / slices=1 / opt-qp-pps / opt-ref-list-length-pps / no-multi-pass-opt-rps / scenecut-bias=0.05 / no-opt-cu-delta-qp / no-aq-motion / no-hdr / no-hdr-opt / no-dhdr10-opt / refine-level=5 / no-limit-sao
Default : Yes
Forced : No

Audio #1
ID : 2
Format : AAC
Format/Info : Advanced Audio Codec
Format profile : LC
Codec ID : A_AAC
Duration : 1 h 32 min
Bit rate : 329 kb/s
Channel(s) : 6 channels
Channel positions : Front: L C R, Side: L R, LFE
Sampling rate : 48.0 kHz
Frame rate : 46.875 FPS (1024 spf)
Compression mode : Lossy
Delay relative to video : 20 ms
Stream size : 217 MiB (10%)
Language : English
Default : Yes
Forced : No

Audio #2
ID : 3
Format : AAC
Format/Info : Advanced Audio Codec
Format profile : HE-AAC / LC
Codec ID : A_AAC
Duration : 1 h 32 min
Bit rate : 66.2 kb/s
Channel(s) : 2 channels
Channel positions : Front: L R
Sampling rate : 48.0 kHz / 24.0 kHz
Frame rate : 23.438 FPS (1024 spf)
Compression mode : Lossy
Delay relative to video : 40 ms
Stream size : 43.4 MiB (2%)
Title : Commentary
Language : English
Default : No
Forced : No

Text #1
ID : 4
Format : VobSub
Muxing mode : zlib
Codec ID : S_VOBSUB
Codec ID/Info : Picture based subtitle format used on DVDs
Duration : 1 h 24 min
Bit rate : 4 425 b/s
Count of elements : 957
Stream size : 2.66 MiB (0%)
Language : English
Default : No
Forced : No

Text #2
ID : 5
Format : VobSub
Muxing mode : zlib
Codec ID : S_VOBSUB
Codec ID/Info : Picture based subtitle format used on DVDs
Duration : 6 min 38 s
Bit rate : 603 b/s
Count of elements : 10
Stream size : 29.4 KiB (0%)
Title : Forced
Language : English
Default : No
Forced : Yes

Text #3
ID : 6
Format : VobSub
Muxing mode : zlib
Codec ID : S_VOBSUB
Codec ID/Info : Picture based subtitle format used on DVDs
Duration : 1 h 25 min
Bit rate : 12.3 kb/s
Count of elements : 1356
Stream size : 7.53 MiB (0%)
Title : Commentary
Language : English
Default : No
Forced : No

Text #4
ID : 7
Format : VobSub
Muxing mode : zlib
Codec ID : S_VOBSUB
Codec ID/Info : Picture based subtitle format used on DVDs
Duration : 1 h 31 min
Bit rate : 2 051 b/s
Count of elements : 748
Stream size : 1.34 MiB (0%)
Language : Arabic
Default : No
Forced : No

Text #5
ID : 8
Format : VobSub
Muxing mode : zlib
Codec ID : S_VOBSUB
Codec ID/Info : Picture based subtitle format used on DVDs
Duration : 1 h 31 min
Bit rate : 3 098 b/s
Count of elements : 598
Stream size : 2.02 MiB (0%)
Language : Danish
Default : No
Forced : No

Text #6
ID : 9
Format : VobSub
Muxing mode : zlib
Codec ID : S_VOBSUB
Codec ID/Info : Picture based subtitle format used on DVDs
Duration : 1 h 31 min
Bit rate : 2 995 b/s
Count of elements : 580
Stream size : 1.95 MiB (0%)
Language : Dutch
Default : No
Forced : No

Text #7
ID : 10
Format : VobSub
Muxing mode : zlib
Codec ID : S_VOBSUB
Codec ID/Info : Picture based subtitle format used on DVDs
Duration : 1 h 31 min
Bit rate : 2 674 b/s
Count of elements : 592
Stream size : 1.74 MiB (0%)
Language : Finnish
Default : No
Forced : No

Text #8
ID : 11
Format : VobSub
Muxing mode : zlib
Codec ID : S_VOBSUB
Codec ID/Info : Picture based subtitle format used on DVDs
Duration : 1 h 31 min
Bit rate : 3 076 b/s
Count of elements : 758
Stream size : 2.01 MiB (0%)
Language : French
Default : No
Forced : No

Text #9
ID : 12
Format : VobSub
Muxing mode : zlib
Codec ID : S_VOBSUB
Codec ID/Info : Picture based subtitle format used on DVDs
Duration : 1 h 32 min
Bit rate : 9 973 b/s
Count of elements : 1352
Stream size : 6.56 MiB (0%)
Title : Commentary
Language : French
Default : No
Forced : No

Text #10
ID : 13
Format : VobSub
Muxing mode : zlib
Codec ID : S_VOBSUB
Codec ID/Info : Picture based subtitle format used on DVDs
Duration : 1 h 31 min
Bit rate : 3 427 b/s
Count of elements : 699
Stream size : 2.24 MiB (0%)
Language : German
Default : No
Forced : No

Text #11
ID : 14
Format : VobSub
Muxing mode : zlib
Codec ID : S_VOBSUB
Codec ID/Info : Picture based subtitle format used on DVDs
Duration : 1 h 24 min
Bit rate : 74 b/s
Count of elements : 12
Stream size : 45.9 KiB (0%)
Title : Forced
Language : German
Default : No
Forced : No

Text #12
ID : 15
Format : VobSub
Muxing mode : zlib
Codec ID : S_VOBSUB
Codec ID/Info : Picture based subtitle format used on DVDs
Duration : 1 h 32 min
Bit rate : 10.9 kb/s
Count of elements : 1356
Stream size : 7.20 MiB (0%)
Title : Commentary
Language : German
Default : No
Forced : No

Text #13
ID : 16
Format : VobSub
Muxing mode : zlib
Codec ID : S_VOBSUB
Codec ID/Info : Picture based subtitle format used on DVDs
Duration : 1 h 31 min
Bit rate : 3 017 b/s
Count of elements : 700
Stream size : 1.97 MiB (0%)
Language : Hindi
Default : No
Forced : No

Text #14
ID : 17
Format : VobSub
Muxing mode : zlib
Codec ID : S_VOBSUB
Codec ID/Info : Picture based subtitle format used on DVDs
Duration : 1 h 31 min
Bit rate : 3 334 b/s
Count of elements : 699
Stream size : 2.17 MiB (0%)
Language : Icelandic
Default : No
Forced : No

Text #15
ID : 18
Format : VobSub
Muxing mode : zlib
Codec ID : S_VOBSUB
Codec ID/Info : Picture based subtitle format used on DVDs
Duration : 1 h 31 min
Bit rate : 3 135 b/s
Count of elements : 699
Stream size : 2.05 MiB (0%)
Language : Italian
Default : No
Forced : No

Text #16
ID : 19
Format : VobSub
Muxing mode : zlib
Codec ID : S_VOBSUB
Codec ID/Info : Picture based subtitle format used on DVDs
Duration : 1 h 32 min
Bit rate : 9 434 b/s
Count of elements : 1357
Stream size : 6.21 MiB (0%)
Title : Commentary
Language : Italian
Default : No
Forced : No

Text #17
ID : 20
Format : VobSub
Muxing mode : zlib
Codec ID : S_VOBSUB
Codec ID/Info : Picture based subtitle format used on DVDs
Duration : 1 h 24 min
Bit rate : 2 717 b/s
Count of elements : 642
Stream size : 1.63 MiB (0%)
Language : Japanese
Default : No
Forced : No

Text #18
ID : 21
Format : VobSub
Muxing mode : zlib
Codec ID : S_VOBSUB
Codec ID/Info : Picture based subtitle format used on DVDs
Duration : 1 h 25 min
Bit rate : 7 484 b/s
Count of elements : 1177
Stream size : 4.58 MiB (0%)
Title : Commentary
Language : Japanese
Default : No
Forced : No

Text #19
ID : 22
Format : VobSub
Muxing mode : zlib
Codec ID : S_VOBSUB
Codec ID/Info : Picture based subtitle format used on DVDs
Duration : 1 h 31 min
Bit rate : 2 893 b/s
Count of elements : 670
Stream size : 1.89 MiB (0%)
Language : Norwegian Bokmal
Default : No
Forced : No

Text #20
ID : 23
Format : VobSub
Muxing mode : zlib
Codec ID : S_VOBSUB
Codec ID/Info : Picture based subtitle format used on DVDs
Duration : 1 h 31 min
Bit rate : 3 397 b/s
Count of elements : 725
Stream size : 2.22 MiB (0%)
Language : Portuguese
Default : No
Forced : No

Text #21
ID : 24
Format : VobSub
Muxing mode : zlib
Codec ID : S_VOBSUB
Codec ID/Info : Picture based subtitle format used on DVDs
Duration : 1 h 31 min
Bit rate : 3 103 b/s
Count of elements : 738
Stream size : 2.03 MiB (0%)
Language : Spanish
Default : No
Forced : No

Text #22
ID : 25
Format : VobSub
Muxing mode : zlib
Codec ID : S_VOBSUB
Codec ID/Info : Picture based subtitle format used on DVDs
Duration : 1 h 32 min
Bit rate : 10.6 kb/s
Count of elements : 1357
Stream size : 7.00 MiB (0%)
Title : Commentary
Language : Spanish
Default : No
Forced : No

Text #23
ID : 26
Format : VobSub
Muxing mode : zlib
Codec ID : S_VOBSUB
Codec ID/Info : Picture based subtitle format used on DVDs
Duration : 1 h 31 min
Bit rate : 3 121 b/s
Count of elements : 642
Stream size : 2.04 MiB (0%)
Language : Swedish
Default : No
Forced : No

Menu
00:00:00.000 : en:Chapter 01
00:04:07.288 : en:Chapter 02
00:07:20.565 : en:Chapter 03
00:11:32.817 : en:Chapter 04
00:16:30.698 : en:Chapter 05
00:22:53.663 : en:Chapter 06
00:30:23.488 : en:Chapter 07
00:34:16.429 : en:Chapter 08
00:38:57.043 : en:Chapter 09
00:43:00.369 : en:Chapter 10
00:47:03.737 : en:Chapter 11
00:53:16.735 : en:Chapter 12
00:57:39.831 : en:Chapter 13
01:00:47.310 : en:Chapter 14
01:04:30.032 : en:Chapter 15
01:09:12.189 : en:Chapter 16
01:12:47.613 : en:Chapter 17
01:17:11.877 : en:Chapter 18
01:21:52.657 : en:Chapter 19
01:25:02.764 : en:Chapter 20


Source Information

Code:

Complete name : Dracula_Untold_t07.mkv
File size : 24.5 GiB
Duration : 1 h 32 min
Overall bit rate mode : Variable
Overall bit rate : 38.1 Mb/s


Files:

Dracula Untold 2014 (1080p Bluray x265 HEVC 10bit AAC 5.1 Tigole)
  • Dracula Untold 2014 (1080p x265 10bit Tigole).mkv (2.1 GB)
  • Featurettes
    • A Day in the Life of Luke Evans.mkv (118.2 MB)
    • Alternate Opening.mkv (23.7 MB)
    • Deleted Scenes.mkv (111.9 MB)
    • Dracula Retold.mkv (76.7 MB)
    • Luke Evans - Creating a Legend.mkv (233.9 MB)
    • Slaying 1,000.mkv (59.0 MB)
    • The Land of Dracula Snippets.mkv (154.8 MB)

Comments

Code:

  • udp://tracker.torrent.eu.org:451/announce
  • udp://tracker.opentrackr.org:1337/announce
  • udp://tracker.coppersurfer.tk:6969/announce